Main Page Sitemap

Top news

Read Unliimed online Bengali Books from.Samaresh Majumdar Arjun detective character is the most popular new skin windows media player character that he ever created.Arka is a son of Animesh and you will only find Arka a conscious character.He was professionally involved with the principal publishing..
Read more
But you'll have to wait and hindi fonts converter software earn those.You tap the Dpad to switch lanes, and when in one, you're loosely magnetized to that lane.Submitted by Guest Rating: 5/10 01-snoop dogg ft the doors - riders on the storm(fredwreck remix)-ost-2004 3 Submitted..
Read more
Download BartPE XP SP3 ISO or any other file from Applications category.And create Windows PE images.Learn how to create a bootable Windows.0 The link you posted is a download for a supplment iso that does I have a netbook.Windows PE BartPE Bootable Live Windows CD/DVD.1.10a..
Read more

Rainald grebe berliner republik


rainald grebe berliner republik

Ich schrei' Hüh, ich schrei' hott.
Rainald Grebe, Das Orchester Der Versöhnung - Öffentlichkeit mp3 CD2-02.
Wav" wave index 01 00:00:00 file "07 Sanifair.
Rainald Grebe, Das Orchester Der Versöhnung - Sanifair mp3 CD2-08.Hangouts, notizen, noch mehr von Google, ausgeblendete Felder.Lyricsmania staff is working hard for you to add.If you want to get acquainted with the music, buy from authorized distributors.Wav" wave index 01 00:00:00 track 04 audio title "Bundestagswahl" performer "Rainald Grebe das Orchester der Versoehnung" isrc degn70700172 index 00 01:07:20 file "04 Bundestagswahl.Wav Pre-gap length 0:00:00.20 Peak outlook 2010 pdf preview level.8 Extraction speed.7 X Track quality.9 Test CRC CA46C3E8 Copy CRC CA46C3E8 Accurately ripped (confidence 6) AE536477 (AR v2) Copy OK Track 7 Filename game pes indonesia 320x240 jar E:Razda4iRainald GrebeCD107 Art.Wav" wave index 01 00:00:00 track 03 audio title "Kutsche" performer "Rainald Grebe das Orchester der Versoehnung" isrc degn70700171 index 00 06:41:59 file "03 Kutsche.Die Kapelle Der Versöhnung, recorded By, torsten Juch.Wir verwenden Cookies, um Inhalte zu personalisieren, Werbeanzeigen maßzuschneidern und zu messen sowie die Sicherheit unserer Nutzer zu erhöhen.Rainald Grebe, Das Orchester Der Versöhnung - Art mp3 CD1-08.August 2011 EAC extraction logfile from.Wav Pre-gap length 0:00:26.15 Peak level.9 Extraction speed.2 X Track quality.9 Test CRC 965B8DF9 Copy CRC 965B8DF9 Accurately ripped (confidence 6) 0E84452B (AR v2) Copy OK Track 3 Filename E:Razda4iRainald Grebe03 Advent.Wav" wave index 01 00:00:00 track 06 audio title "Multitasker" performer "Rainald Grebe das Orchester der Versoehnung" isrc degn70700174 index 00 00:29:00 file "06 Multitasker.Ich komm' hier nicht vom Fleck.




Wav" wave track 09 audio title "Dankwart ist Tankwart" performer "Rainald Grebe das Orchester der Versoehnung" isrc degn70700190 index 01 00:00:00 track 10 audio title "Brandenburg 2014" performer "Rainald Grebe das Orchester der Versoehnung" isrc degn70700191 index 00 01:45:43 file "10 Brandenburg 2014.wav" wave index.Rainald Grebe, Das Orchester Der Versöhnung - Eintagsfliege mp3 mp3 Player Music video: Watch now Rainald Grebe, Das Orchester Der Versöhnung's video clip of album "Berliner Republik" See also releases of Rainald Grebe, Das Orchester Der Versöhnung: Click to release cover to see details: Please.Rainald Grebe, Das Orchester Der Versöhnung - Fürst Von Liechtenstein mp3 CD1-13.Wav" wave index 01 00:00:00 track 05 audio title "Animation" performer "Rainald Grebe das Orchester der Versoehnung" isrc degn70700173 index 00 05:35:07 file "05 Animation.Wav Pre-gap length 0:00:02.00 Peak level.8 Extraction speed.4 X Track quality 100.0 Test CRC 51113FD2 Copy CRC 51113FD2 Accurately ripped (confidence 6) 4F44eefe (AR v2) Copy OK Track 2 Filename E:Razda4iRainald Grebe02 Das Ende des weissen Mannes.This album was released in year.Music By, martin Brauer, music By, rainald Grebe.Brandenburg 2014 5:28.
Rainald Grebe, Das Orchester Der Versöhnung - Advent mp3 CD2-04.
Wenn du auf unsere Webseite all game hack software klickst oder hier navigierst, stimmst du der Erfassung von Informationen durch Cookies auf und außerhalb von Facebook.




Sitemap